Hochgeladen am 04. Jul 2022 00:02
Minions.Auf.der.Suche.nach.dem.Mini-Boss.2022.GERMAN.AC3.MIC.DUBBED.720p.TS-SNEAKMAN *mirror*
Genre: Animation
Kategorie: Movies
Unterkategorie: 720p
Sprache:
Größe: 1559 MB
Format: CAM/TS/TC
Passwort: ohne Passwort
Mit 12 Jahren ist Gru (Stimme im Original: Steve Carell, deutsche Stimme: Oliver Rohrbeck) noch weit davon entfernt, der Superschurke zu sein, als den ihn die Welt später kennen wird. In einem beschaulichen Vorort der 70er-Jahre träumt er davon, seine Mitmenschen in Angst und Schrecken zu versetzen und vor allem seine großen Vorbilder zu beeindrucken: die Vicious 6, eine von allen gefürchtete Gruppe von Superbösewichten, die von der Kampfsportlegende Wilder Knöchelknacker (Alan Arkin / Thomas Gottschalk) angeführt wird. Tatsächlich schafft es Gru, ein Vorstellungsgespräch bei seinen Idolen zu ergattern, um neues Mitglied der Truppe zu werden - doch die Vicious 6 lachen den schüchternen Knirps nur aus. Um ihnen zu beweisen, was wirklich in ihm steckt, stiehlt er ihnen ein mächtiges Artefakt - und steht fortan ganz oben auf der Abschussliste der Vicious 6. Zum Glück hat Gru seine kleinen, gelben Minions, die ihm dabei helfen, vor seinen neuen Gegnern zu fliehen und gleichzeitig seinen Status als aufsteigender Stern am Superschurken-Himmel auszubauen. Aber sehr zu Grus Verdruss stiften die Minions rund um Kevin, Stuart, Bob und Otto meistens nur neues Chaos, statt wirklich hilfreich zu sein.
Name : Minions - Auf der Suche nach dem Mini-Boss Releasedate : 30.06.2022 Kinostart 30. Juni 2022 Im Kino Audio : German AC3 Mic Dubbed Video: 720p TS Laufzeit : 1 Std. 28 Min. Genre : Animation https //www.imdb.com/title/tt5113044/ Plot : Die kleinen gelben Minions treiben einmal mehr ihr Unwesen auf der groen Kinoleinwand. Voraussichtlich wird es diesmal auch um den Aufstieg von Gru zum grten Schurken der Welt gehen. leider kein anderer TS grade verfgbar werbung kann ich nicht berbleden. aber da gibs ja andere spezialisten die das mit ihrer eigenen werbung ersetzen *g* Format : Matroska Format version : Version 1 File size : 1.52 GiB Duration : 1 h 20 min Overall bit rate : 2 698 kb/s Encoded date : UTC 2022-06-30 22:27:30 Writing application : WonderShare Matroska Muxer Writing library : WonderShare Matroska Muxer Video ID : 1 Format : AVC Format/Info : Advanced Video Codec Format profile : High@L5.1 Format settings : CABAC / 1 Ref Frames Format settings, CABAC : Yes Format settings, Reference frames : 1 frame Format settings, GOP : M=1, N=30 Codec ID : V_MPEG4/ISO/AVC Duration : 1 h 20 min Bit rate : 2 453 kb/s Width : 1 280 pixels Height : 500 pixels Display aspect ratio : 2.560 Frame rate mode : Constant Frame rate : 30.000 FPS Color space : YUV Chroma subsampling : 4:2:0 Bit depth : 8 bits Scan type : Progressive Bits/(Pixel*Frame : 0.128 Stream size : 1.38 GiB (91%) Default : Yes Forced : No Color range : Limited Color primaries : BT.709 Transfer characteristics : BT.709 Matrix coefficients : BT.709 Audio ID : 2 Format : MPEG Audio Format version : Version 1 Format profile : Layer 3 Format settings : Joint stereo / MS Stereo Codec ID : A_MPEG/L3 Codec ID/Hint : MP3 Duration : 1 h 20 min Bit rate mode : Constant Bit rate : 192 kb/s Channel(s : 2 channels Sampling rate : 48.0 kHz Compression mode : Lossy Stream size : 111 MiB (7%) Writing library : LAME3.98.2 Default : Yes Forced : No
Noch mehr Downloads wie „Minions.Auf.der.Suche.nach.dem.Mini-Boss.2022.GERMAN.AC3.MIC.DUBBED.720p.TS-SNEAKMAN *mirror*“
Minions.Auf.der.Suche.nach.dem.Mini.Boss.2022.German.BDRip.x264-DETAiLS *mirror* Animation 1.0 GB 🛒
Minions.Auf.der.Suche.nach.dem.Mini.Boss.2022.German.720p.BluRay.x264-DETAiLS *mirror* Animation 1 GB 🛒
Minions.Auf.der.Suche.nach.dem.Mini.Boss.2022.German.DL.1080p.BluRay.x264-DETAiLS *mirror* Animation 11 GB 🛒
Minions.Auf.der.Suche.nach.dem.Mini.Boss.2022.German.BDRip.x264-DETAiLS *mirror* Animation 1.0 GB 🛒
Minions.Auf.der.Suche.nach.dem.Mini.Boss.2022.German.DL.1080p.BluRay.x264-DETAiLS *mirror* Animation 4 GB 🛒
Minions.Auf.der.Suche.nach.dem.Mini.Boss.2022.German.720p.BluRay.x264-DETAiLS *mirror* Animation 1 GB 🛒
Minions.Auf.der.Suche.nach.dem.Mini.Boss.2022.German.BDRip.x264-DETAiLS Animation 1 GB 🛒
Minions.Auf.der.Suche.nach.dem.Mini.Boss.2022.German.720p.BluRay.x264-DETAiLS Animation 1 GB 🛒
Minions.Auf.der.Suche.nach.dem.Mini.Boss.2022.German.DL.1080p.BluRay.x264-DETAiLS Animation 4 GB 🛒
Minions.2.Auf.der.Suche.nach.dem.Mini-Boss.2022.GERMAN.DL.AC3.DUBBED.720p.WEB.h264-PsO *mirror* Animation 2 GB 🛒
Minions.2.Auf.der.Suche.nach.dem.Mini-Boss.2022.GERMAN.DL.AC3.DUBBED.1080p.WEB.h264-PsO *mirror* Animation 4 GB 🛒
Minions.2.Auf.der.Suche.nach.dem.Mini-Boss.2022.GERMAN.DL.AC3.DUBBED.HDR.2160p.WEB.h265-PsO *mirror* Animation 15 GB 🛒
Minions.2.Auf.der.Suche.nach.dem.Mini-Boss.2022.WEBRip.LD.German.x264-PsO *mirror* Animation 1 GB 🛒
Minions.2.Auf.der.Suche.nach.dem.Mini-Boss.2022.GERMAN.DL.AC3.DUBBED.1080p.WEB.h264-PsO *mirror* Animation 4 GB 🛒
Minions.2.Auf.der.Suche.nach.dem.Mini-Boss.2022.GERMAN.DL.AC3.DUBBED.720p.WEB.h264-PsO *mirror* Animation 2 GB 🛒
Minions.2.Auf.der.Suche.nach.dem.Mini-Boss.2022.WEBRip.LD.German.x264-PsO *mirror* Animation 1 GB 🛒
Minions.2.Auf.der.Suche.nach.dem.Mini-Boss.2022.GERMAN.DL.AC3.DUBBED.HDR.2160p.WEB.h265-PsO Animation 16 GB 🛒
Minions.2.Auf.der.Suche.nach.dem.Mini-Boss.2022.GERMAN.DL.AC3.DUBBED.720p.WEB.h264-PsO Animation 2 GB 🛒
Minions.2.Auf.der.Suche.nach.dem.Mini-Boss.2022.WEBRip.LD.German.x264-PsO Animation 1 GB 🛒
Minions.2.Auf.der.Suche.nach.dem.Mini-Boss.2022.GERMAN.DL.AC3.DUBBED.1080p.WEB.h264-PsO Animation 4 GB 🛒

ddownload.com

Rapidgator.net