Hochgeladen am 09. Jul 2022 15:06
Thor.Love.And.Thunder.2022.German.AC3MD.TS.x264-ODiN
Genre: Action
Kategorie: Movies
Unterkategorie: SD
Sprache:
Größe: 1580 MB
Format: CAM/TS/TC
Passwort: ohne Passwort
Thor (Chris Hemsworth) zieht nach dem Sieg der versammelten Avengers gegen Thanos mit den Guardians Of The Galaxy durch das Universum und stellt seine Axt Stormbreaker in den Dienst der guten Sache. Doch bei seinen Abenteuern mit Star-Lord (Chris Pratt), Drax (Dave Bautista), Nebula (Karen Gillan) und Co. merkt er bald, dass irgendjemand Jagd auf Götter und Göttinnen macht und beschließt, der Sache auf den Grund zu gehen. In New Asgard trifft er dabei auf König Valkyrie (Tessa Thompson) – und auf seine Ex-Freundin Jane Foster (Natalie Portman), die durch die Überreste von Thors Hammer Mjölnir die Kräfte einer Donnergöttin verliehen bekommen hat und als Mighty Thor für das Gute kämpft. Nach einer ersten Konfrontation mit dem Götterschlächter Gorr (Christian Bale) nehmen die drei dessen Spur auf und kommen seinem tückischem Plan auf die Spur.
ODiN Presents: Thor.Love.And.Thunder.2022.German.AC3MD.TS.x264-ODiN Releasedate : 08.07.2022 Video : 720x300 TS Codec : x264 1944 kb/s Audio : AC3 2.0 MD 128 kb/s German Size : 1.54 GB Notes ...: General Unique ID : 193366452625546167006693104419491349496 (0x9179062DB89548F2A574578F0CC103F8) Complete name : E:\VBOX Share\Thor.Love.And.Thunder.2022.German.AC3MD.TS.x264-ODiN.mkv Format : Matroska Format version : Version 2 File size : 1.54 GiB Duration : 1 h 46 min Overall bit rate mode : Constant Overall bit rate : 2 074 kb/s Movie name : Thor.Love.And.Thunder.2022.German.AC3MD.TS.x264-ODiN Encoded date : UTC 2022-07-08 02:20:44 Writing application : DVDFab 12.0.5.3 Writing library : libebml v1.4.2 + libmatroska v1.6.3 Video ID : 1 Format : AVC Format/Info : Advanced Video Codec Format profile : High@L4.1 Format settings : CABAC / 1 Ref Frames Format settings, CABAC : Yes Format settings, Reference frames : 1 frame Format settings, GOP : M=1, N=30 Codec ID : V_MPEG4/ISO/AVC Duration : 1 h 46 min Bit rate mode : Constant Bit rate : 1 944 kb/s Width : 720 pixels Height : 300 pixels Display aspect ratio : 2.40:1 Frame rate mode : Constant Frame rate : 30.000 FPS Color space : YUV Chroma subsampling : 4:2:0 Bit depth : 8 bits Scan type : Progressive Bits/(Pixel*Frame : 0.300 Stream size : 1.45 GiB (94%) Default : Yes Forced : No Color range : Limited Color primaries : BT.709 Transfer characteristics : BT.709 Matrix coefficients : BT.709 Audio ID : 2 Format : AC-3 Format/Info : Audio Coding 3 Commercial name : Dolby Digital Codec ID : A_AC3 Duration : 1 h 46 min Bit rate mode : Constant Bit rate : 128 kb/s Channel(s : 2 channels Channel layout : L R Sampling rate : 48.0 kHz Frame rate : 31.250 FPS (1536 SPF) Compression mode : Lossy Stream size : 97.5 MiB (6%) Service kind : Complete Main Default : Yes Forced : No
Downloads
ddownload rapidgator
Noch mehr Downloads wie „Thor.Love.And.Thunder.2022.German.AC3MD.TS.x264-ODiN“
Thor.Love.And.Thunder.2022.German.1080p.BluRay.x264-IDDQD Action 7 GB 🛒
Thor.Love.and.Thunder.GERMAN.2022.DL.PAL.DVDR-OldsMan Action 4 GB 🛒
Thor.Love.And.Thunder.2022.German.1080p.BluRay.x264-wYYYe Action 11 GB 🛒
Thor.Love.and.Thunder.2022.German.DL.2160p.UHD.BluRay.x265-CHRiSHEMSWORTH *mirror* Action 31 GB 🛒
Thor.Love.and.Thunder.2022.MULTi.COMPLETE.UHD.BLURAY.PROPER-CHRiSHEMSWORTH Action 57 GB 🛒
Thor.Love.and.Thunder.2022.German.DL.2160p.UHD.BluRay.x265-CHRiSHEMSWORTH Action 30 GB 🛒
Thor.Love.and.Thunder.2022.German.DL.2160p.UHD.BluRay.HEVC-CHRiSHEMSWORTH Action 50 GB 🛒
Thor.Love.and.Thunder.2022.German.DTS.DL.1080p.BluRay.x264-KOC *mirror* Action 7 GB 🛒
Thor.Love.and.Thunder.2022.German.DL.2160p.UHD.BluRay.REMUX.HDR.HEVC-GLD Action 49.0 GB 🛒
Thor.Love.and.Thunder.2022.German.EAC3.DL.2160p.Hybrid.UHD.BluRay.DV.HDR.HEVC.Remux-NIMA4K Action 48.0 GB 🛒
Thor.Love.and.Thunder.2022.German.720p.BluRay.x264-DETAiLS *mirror* Action 2 GB 🛒
Thor.Love.and.Thunder.2022.German.DL.2160p.WEB.DV.H265.iNTERNAL-CODY *mirror* Action 18 GB 🛒
Thor.Love.and.Thunder.2022.MULTi.COMPLETE.UHD.BLURAY-MONUMENT Action 57.0 GB 🛒
Thor.Love.and.Thunder.2022.German.DL.2160p.WEB.DV.H265.iNTERNAL-CODY Action 19 GB 🛒
Thor.Love.and.Thunder.2022.German.DTS.DL.1080p.BluRay.x265-EDE Fantasy 5 GB 🛒
Thor.Love.and.Thunder.2022.German.DL.1080p.BluRay.x264-DETAiLS Action 4 GB 🛒
Thor.Love.and.Thunder.2022.German.DTS.DL.1080p.BluRay.x264-KOC Fantasy 7 GB 🛒
Thor.Love.and.Thunder.2022.German.720p.BluRay.x264-DETAiLS *mirror* Action 2 GB 🛒
Thor.Love.and.Thunder.2022.German.BDRip.x264-DETAiLS *mirror* Action 1 GB 🛒
Thor.Love.and.Thunder.2022.German.720p.BluRay.x264-DETAiLS Action 2 GB 🛒

ddownload.com

Rapidgator.net