Hochgeladen am 14. Jul 2022 19:36
Hatching.2022.GERMAN.AC3.MIC.DUBBED.1080p.DL.WEBRiP.x264-SNEAKMAN
Genre: Horror
Kategorie: Movies
Unterkategorie: 1080p
Sprache:
Größe: 4511 MB
Format: WEB
Passwort: ohne Passwort
Die 12-jährige Turnerin Tinja (Siiri Solalinna) möchte unbedingt ihrer Mutter (Sophia Heikkilä) gefallen, die früher einmal Eiskunstläuferin war und nun einen beliebten Blog betreibt, der das idyllische Leben ihrer Familie präsentiert. Nachdem Tinja eines Tages im Wald einen verwundeten Vogel findet, bringt sie sein seltsames Ei nach Hause, versteckt es in ihrem Bett und pflegt es, bis es schlüpft. Die Kreatur, die daraus auftaucht, wird zu ihrer engsten Freundin und einem lebenden Albtraum, der Tinja unter der makellosen Fassade in eine verdrehte Realität stürzt, die ihre Mutter nicht sehen will. Doch Tinja ist nicht die Einzige, die versucht, ein Geheimnis zu bewahren.
Sneakman Pres. Plot : Die 12-jhrige Turnerin Tinja (Siiri Solalinna) mchte unbedingt ihrer Mutter (Sophia Heikkil) gefallen, die frher einmal Eiskunstluferin war und nun einen beliebten Blog betreibt, der das idyllische Leben ihrer Familie prsentiert. Nachdem Tinja eines Tages im Wald einen verwundeten Vogel findet, bringt sie sein seltsames Ei nach Hause, versteckt es in ihrem Bett und pflegt es, bis es schlpft. Releasedate 13. 07 .2022 Kinostart 28. 07 .2022 Laufzeit 86 Min Genre Horror Imdb https //www.imdb.com/title/tt12519030/ Video 1080P Audio Mic Dubbed Deutsch / Original Audio FIN war nicht ganz so einfach zu dubben. aber es sollte alles passen soweit. Format : Matroska Format version : Version 4 File size : 4.41 GiB Duration : 1 h 26 min Overall bit rate : 7 253 kb/s Encoded date : UTC 2022-07-13 21:05:52 Writing application : mkvmerge v65.0.0 ('Too Much ) 64-bit Writing library : libebml v1.4.2 libmatroska v1.6.4 Video ID : 1 Format : AVC Format/Info : Advanced Video Codec Format profile : High@L4 Format settings : CABAC / 4 Ref Frames Format settings, CABAC : Yes Format settings, Reference frames : 4 frames Codec ID : V_MPEG4/ISO/AVC Duration : 1 h 26 min Bit rate : 6 674 kb/s Width : 1 912 pixels Height : 1 034 pixels Display aspect ratio : 1.85:1 Frame rate mode : Constant Frame rate : 25.000 FPS Color space : YUV Chroma subsampling : 4:2:0 Bit depth : 8 bits Scan type : Progressive Bits/(Pixel*Frame : 0.135 Stream size : 4.05 GiB (92%) Default : Yes Forced : No Color range : Limited Color primaries : BT.709 Transfer characteristics : BT.709 Matrix coefficients : BT.709 Audio #1 ID : 2 Format : E-AC-3 Format/Info : Enhanced AC-3 Commercial name : Dolby Digital Plus Codec ID : A_EAC3 Duration : 1 h 26 min Bit rate mode : Constant Bit rate : 192 kb/s Channel(s : 2 channels Channel layout : L R Sampling rate : 48.0 kHz Frame rate : 31.250 FPS (1536 SPF) Compression mode : Lossy Stream size : 119 MiB (3%) Title : Deutsch Mic Language : German Service kind : Complete Main Default : Yes Forced : No Audio #2 ID : 3 Format : AC-3 Format/Info : Audio Coding 3 Commercial name : Dolby Digital Codec ID : A_AC3 Duration : 1 h 26 min Bit rate mode : Constant Bit rate : 384 kb/s Channel(s : 6 channels Channel layout : L R C LFE Ls Rs Sampling rate : 48.0 kHz Frame rate : 31.250 FPS (1536 SPF) Compression mode : Lossy Stream size : 239 MiB (5%) Language : Finnish Service kind : Complete Main Default : Yes Forced : No Text #1 ID : 4 Format : UTF-8 Codec ID : S_TEXT/UTF8 Codec ID/Info : UTF-8 Plain Text Duration : 1 h 20 min Bit rate : 21 b/s Count of elements : 502 Stream size : 12.8 KiB (0%) Title : English Subs Language : English Default : No Forced : No Text #2 ID : 5 Format : UTF-8 Codec ID : S_TEXT/UTF8 Codec ID/Info : UTF-8 Plain Text Duration : 1 h 22 min Bit rate : 28 b/s Count of elements : 851 Stream size : 17.5 KiB (0%) Title : SDH Language : English Default : No Forced : No
Downloads

ddownload.com

Rapidgator.net