Hochgeladen am 29. Aug 2022 00:12
The.Descent.-.Abgrund.Des.Grauens.Uncut.2005.German.DL.BDRip.X264-LiA
Genre: Horror
Kategorie: Movies
Unterkategorie: SD
Sprache:
Größe: 1362 MB
Format: BD-RIP
Passwort: ohne Passwort
Bei einem Autounfall verliert Sarah (Shauna Macdonald) Mann und Tochter. Ein Jahr später findet sie sich mit fünf Freundinnen zu einem Extremsport-Wochenende in den Bergen ein. Eine Höhlenbesichtigung auf bislang scheinbar noch nicht beschrittenen Wegen steht auf dem Programm. Doch die Klettertour entpuppt sich als Horrortrip und Kampf gegen die eigenen Dämonen sowie eine Horde wilder Bestien, die in den dunklen Höhlengängen auf Frischfleisch lauern. Das britische Genretalent Neil Marshall konnte bereits mit seinem in Deutschland als DVD-Premiere erschienenen Erstling, dem Werwolfschocker "Dog Soldiers", im Horrorbereich Erfahrung sammeln.
General Unique ID : 133484943819146483648263069967513224639 (0x646C43D9D53012E2C085364A63B305BF) Complete name : The.Descent -.Abgrund.Des.Grauens.Uncut.2005.German.DL.BDRip.X264-LiA\The.Descent -.Abgrund.Des.Grauens.Uncut.2005.German.DL.BDRip.X264-LiA.mkv Format : Matroska Format version : Version 4 File size : 1.33 GiB Duration : 1 h 40 min Overall bit rate : 1 902 kb/s Encoded date : UTC 2020-11-05 03:59:01 Writing application : HandBrake 1.3.3 2020061300 Writing library : Lavf58.29.100 ErrorDetectionType : Per level 1 Video ID : 1 Format : AVC Format/Info : Advanced Video Codec Format profile : Main@L4 Format settings : CABAC / 4 Ref Frames Format settings, CABAC : Yes Format settings, Reference frames : 4 frames Codec ID : V_MPEG4/ISO/AVC Duration : 1 h 40 min Bit rate : 1 600 kb/s Width : 1 124 pixels Height : 480 pixels Display aspect ratio : 2.35:1 Frame rate mode : Constant Frame rate : 23.976 (24000/1001) FPS Color space : YUV Chroma subsampling : 4:2:0 Bit depth : 8 bits Scan type : Progressive Bits/(Pixel*Frame : 0.124 Stream size : 1.08 GiB (81%) Writing library : x264 core 157 r2935 545de2f Encoding settings : cabac=1 / ref=2 / deblock=1:0:0 / analyse=0x1:0x111 / me=hex / subme=6 / psy=1 / psy_rd=1.00:0.00 / mixed_ref=1 / me_range=16 / chroma_me=1 / trellis=1 / 8x8dct=0 / cqm=0 / deadzone=21,11 / fast_pskip=1 / chroma_qp_offset=-2 / threads=12 / lookahead_threads=2 / sliced_threads=0 / nr=0 / decimate=1 / interlaced=0 / bluray_compat=0 / constrained_intra=0 / bframes=3 / b_pyramid=2 / b_adapt=1 / b_bias=0 / direct=1 / weightb=1 / open_gop=0 / weightp=1 / keyint=240 / keyint_min=24 / scenecut=40 / intra_refresh=0 / rc_lookahead=30 / rc=abr / mbtree=1 / bitrate=1600 / ratetol=1.0 / qcomp=0.60 / qpmin=0 / qpmax=69 / qpstep=4 / vbv_maxrate=20000 / vbv_bufsize=25000 / nal_hrd=none / filler=0 / ip_ratio=1.40 / aq=1:1.00 Default : Yes Forced : No Color range : Limited Color primaries : BT.709 Transfer characteristics : BT.709 Matrix coefficients : BT.709 Audio #1 ID : 2 Format : AC-3 Format/Info : Audio Coding 3 Commercial name : Dolby Digital Codec ID : A_AC3 Duration : 1 h 40 min Bit rate mode : Constant Bit rate : 160 kb/s Channel(s : 2 channels Channel layout : L R Sampling rate : 48.0 kHz Frame rate : 31.250 FPS (1536 SPF) Compression mode : Lossy Delay relative to video -5 ms Stream size : 115 MiB (8%) Title : Ger Language : German Service kind : Complete Main Default : Yes Forced : No Audio #2 ID : 3 Format : AC-3 Format/Info : Audio Coding 3 Commercial name : Dolby Digital Codec ID : A_AC3 Duration : 1 h 40 min Bit rate mode : Constant Bit rate : 160 kb/s Channel(s : 2 channels Channel layout : L R Sampling rate : 48.0 kHz Frame rate : 31.250 FPS (1536 SPF) Compression mode : Lossy Delay relative to video -5 ms Stream size : 115 MiB (8%) Title : Eng Language : English Service kind : Complete Main Default : No Forced : No Menu 00:00:00.000 :00:00:00.000 00:06:36.271 :00:06:36.229 00:15:39.355 :00:15:39.355 00:24:43.399 :00:24:43.399 00:35:20.535 :00:35:20.452 00:46:14.105 :00:46:14.021 00:54:08.078 :00:54:07.995 01:00:56.695 :01:00:56.570 01:10:28.182 :01:10:28.099 01:18:10.227 :01:18:10.227 01:27:19.818 :01:27:19.818 01:35:47.867 :01:35:47.784 General Unique ID : 133484943819146483648263069967513224639 (0x646C43D9D53012E2C085364A63B305BF) Complete name : The.Descent -.Abgrund.Des.Grauens.Uncut.2005.German.DL.BDRip.X264-LiA\The.Descent -.Abgrund.Des.Grauens.Uncut.2005.German.DL.BDRip.X264-LiA.mkv Format : Matroska Format version : Version 4 File size : 1.33 GiB Duration : 1 h 40 min Overall bit rate : 1 902 kb/s Encoded date : UTC 2020-11-05 03:59:01 Writing application : HandBrake 1.3.3 2020061300 Writing library : Lavf58.29.100 ErrorDetectionType : Per level 1 Video ID : 1 Format : AVC Format/Info : Advanced Video Codec Format profile : Main@L4 Format settings : CABAC / 4 Ref Frames Format settings, CABAC : Yes Format settings, Reference frames : 4 frames Codec ID : V_MPEG4/ISO/AVC Duration : 1 h 40 min Bit rate : 1 600 kb/s Width : 1 124 pixels Height : 480 pixels Display aspect ratio : 2.35:1 Frame rate mode : Constant Frame rate : 23.976 (24000/1001) FPS Color space : YUV Chroma subsampling : 4:2:0 Bit depth : 8 bits Scan type : Progressive Bits/(Pixel*Frame : 0.124 Stream size : 1.08 GiB (81%) Writing library : x264 core 157 r2935 545de2f Encoding settings : cabac=1 / ref=2 / deblock=1:0:0 / analyse=0x1:0x111 / me=hex / subme=6 / psy=1 / psy_rd=1.00:0.00 / mixed_ref=1 / me_range=16 / chroma_me=1 / trellis=1 / 8x8dct=0 / cqm=0 / deadzone=21,11 / fast_pskip=1 / chroma_qp_offset=-2 / threads=12 / lookahead_threads=2 / sliced_threads=0 / nr=0 / decimate=1 / interlaced=0 / bluray_compat=0 / constrained_intra=0 / bframes=3 / b_pyramid=2 / b_adapt=1 / b_bias=0 / direct=1 / weightb=1 / open_gop=0 / weightp=1 / keyint=240 / keyint_min=24 / scenecut=40 / intra_refresh=0 / rc_lookahead=30 / rc=abr / mbtree=1 / bitrate=1600 / ratetol=1.0 / qcomp=0.60 / qpmin=0 / qpmax=69 / qpstep=4 / vbv_maxrate=20000 / vbv_bufsize=25000 / nal_hrd=none / filler=0 / ip_ratio=1.40 / aq=1:1.00 Default : Yes Forced : No Color range : Limited Color primaries : BT.709 Transfer characteristics : BT.709 Matrix coefficients : BT.709 Audio #1 ID : 2 Format : AC-3 Format/Info : Audio Coding 3 Commercial name : Dolby Digital Codec ID : A_AC3 Duration : 1 h 40 min Bit rate mode : Constant Bit rate : 160 kb/s Channel(s : 2 channels Channel layout : L R Sampling rate : 48.0 kHz Frame rate : 31.250 FPS (1536 SPF) Compression mode : Lossy Delay relative to video -5 ms Stream size : 115 MiB (8%) Title : Ger Language : German Service kind : Complete Main Default : Yes Forced : No Audio #2 ID : 3 Format : AC-3 Format/Info : Audio Coding 3 Commercial name : Dolby Digital Codec ID : A_AC3 Duration : 1 h 40 min Bit rate mode : Constant Bit rate : 160 kb/s Channel(s : 2 channels Channel layout : L R Sampling rate : 48.0 kHz Frame rate : 31.250 FPS (1536 SPF) Compression mode : Lossy Delay relative to video -5 ms Stream size : 115 MiB (8%) Title : Eng Language : English Service kind : Complete Main Default : No Forced : No Menu 00:00:00.000 :00:00:00.000 00:06:36.271 :00:06:36.229 00:15:39.355 :00:15:39.355 00:24:43.399 :00:24:43.399 00:35:20.535 :00:35:20.452 00:46:14.105 :00:46:14.021 00:54:08.078 :00:54:07.995 01:00:56.695 :01:00:56.570 01:10:28.182 :01:10:28.099 01:18:10.227 :01:18:10.227 01:27:19.818 :01:27:19.818 01:35:47.867 :01:35:47.784 General Unique ID : 133484943819146483648263069967513224639 (0x646C43D9D53012E2C085364A63B305BF) Complete name : The.Descent -.Abgrund.Des.Grauens.Uncut.2005.German.DL.BDRip.X264-LiA\The.Descent -.Abgrund.Des.Grauens.Uncut.2005.German.DL.BDRip.X264-LiA.mkv Format : Matroska Format version : Version 4 File size : 1.33 GiB Duration : 1 h 40 min Overall bit rate : 1 902 kb/s Encoded date : UTC 2020-11-05 03:59:01 Writing application : HandBrake 1.3.3 2020061300 Writing library : Lavf58.29.100 ErrorDetectionType : Per level 1 Video ID : 1 Format : AVC Format/Info : Advanced Video Codec Format profile : Main@L4 Format settings : CABAC / 4 Ref Frames Format settings, CABAC : Yes Format settings, Reference frames : 4 frames Codec ID : V_MPEG4/ISO/AVC Duration : 1 h 40 min Bit rate : 1 600 kb/s Width : 1 124 pixels Height : 480 pixels Display aspect ratio : 2.35:1 Frame rate mode : Constant Frame rate : 23.976 (24000/1001) FPS Color space : YUV Chroma subsampling : 4:2:0 Bit depth : 8 bits Scan type : Progressive Bits/(Pixel*Frame : 0.124 Stream size : 1.08 GiB (81%) Writing library : x264 core 157 r2935 545de2f Encoding settings : cabac=1 / ref=2 / deblock=1:0:0 / analyse=0x1:0x111 / me=hex / subme=6 / psy=1 / psy_rd=1.00:0.00 / mixed_ref=1 / me_range=16 / chroma_me=1 / trellis=1 / 8x8dct=0 / cqm=0 / deadzone=21,11 / fast_pskip=1 / chroma_qp_offset=-2 / threads=12 / lookahead_threads=2 / sliced_threads=0 / nr=0 / decimate=1 / interlaced=0 / bluray_compat=0 / constrained_intra=0 / bframes=3 / b_pyramid=2 / b_adapt=1 / b_bias=0 / direct=1 / weightb=1 / open_gop=0 / weightp=1 / keyint=240 / keyint_min=24 / scenecut=40 / intra_refresh=0 / rc_lookahead=30 / rc=abr / mbtree=1 / bitrate=1600 / ratetol=1.0 / qcomp=0.60 / qpmin=0 / qpmax=69 / qpstep=4 / vbv_maxrate=20000 / vbv_bufsize=25000 / nal_hrd=none / filler=0 / ip_ratio=1.40 / aq=1:1.00 Default : Yes Forced : No Color range : Limited Color primaries : BT.709 Transfer characteristics : BT.709 Matrix coefficients : BT.709 Audio #1 ID : 2 Format : AC-3 Format/Info : Audio Coding 3 Commercial name : Dolby Digital Codec ID : A_AC3 Duration : 1 h 40 min Bit rate mode : Constant Bit rate : 160 kb/s Channel(s : 2 channels Channel layout : L R Sampling rate : 48.0 kHz Frame rate : 31.250 FPS (1536 SPF) Compression mode : Lossy Delay relative to video -5 ms Stream size : 115 MiB (8%) Title : Ger Language : German Service kind : Complete Main Default : Yes Forced : No Audio #2 ID : 3 Format : AC-3 Format/Info : Audio Coding 3 Commercial name : Dolby Digital Codec ID : A_AC3 Duration : 1 h 40 min Bit rate mode : Constant Bit rate : 160 kb/s Channel(s : 2 channels Channel layout : L R Sampling rate : 48.0 kHz Frame rate : 31.250 FPS (1536 SPF) Compression mode : Lossy Delay relative to video -5 ms Stream size : 115 MiB (8%) Title : Eng Language : English Service kind : Complete Main Default : No Forced : No Menu 00:00:00.000 :00:00:00.000 00:06:36.271 :00:06:36.229 00:15:39.355 :00:15:39.355 00:24:43.399 :00:24:43.399 00:35:20.535 :00:35:20.452 00:46:14.105 :00:46:14.021 00:54:08.078 :00:54:07.995 01:00:56.695 :01:00:56.570 01:10:28.182 :01:10:28.099 01:18:10.227 :01:18:10.227 01:27:19.818 :01:27:19.818 01:35:47.867 :01:35:47.784 https //www.imdb.com/title/tt0435625/
Noch mehr Downloads wie „The.Descent.-.Abgrund.Des.Grauens.Uncut.2005.German.DL.BDRip.X264-LiA“
The.Descent.Abgrund.des.Grauens.UNCUT.2005.German.DL.1080p.BluRay.x264.iNTERNAL-VideoStar Horror 6 GB 🛒

ddownload.com

Rapidgator.net