Hochgeladen am 03. Sep 2022 11:05
Asterix.und.Obelix.-.Mission.Kleopatra.DVDRiP.2002.GERMAN.XViD-iND
Genre: Komödie
Kategorie: Movies
Unterkategorie: SD
Sprache:
Größe: 702 MB
Format: DVD-RIP
Passwort: ohne Passwort
Asterix & Obelix: Mission Kleopatra ist der zweite Realfilm der Comicreihe Asterix aus dem Jahr 2002, der auf dem Asterixband Asterix und Kleopatra und der Zeichentrickverfilmung dieses Bandes aus dem Jahr 1968 basiert. Der ägyptische Chaosarchitekt Numerobis bittet den gallischen Druiden Miraculix um Hilfe: Wenn er nicht in kürzester Zeit seiner cholerischen Königin mit der spitzen Nase einen Palast baut, endet er als Krokodilfutter. Miraculix schickt seine besten Männer, Asterix & Obelix, ins Land der Pyramiden.
General Complete name : Asterix.und.Obelix -.Mission.Kleopatra.DVDRiP.2002.GERMAN.XViD-iND\ind-auomkx.avi Format : AVI Format/Info : Audio Video Interleave File size : 702 MiB Duration : 1 h 43 min Overall bit rate : 947 kb/s Writing application : Nandub v1.0rc2 Writing library : Nandub build 1853/release Video ID : 0 Format : MPEG-4 Visual Format settings : BVOP1 / GMC2 Format settings, BVOP : 1 Format settings, QPel : No Format settings, GMC : 2 warppoints Format settings, Matrix : Default (H.263) Muxing mode : Packed bitstream Codec ID : DX50 Codec ID/Hint : DivX 5 Duration : 1 h 43 min Bit rate : 806 kb/s Width : 640 pixels Height : 272 pixels Display aspect ratio : 2.35:1 Frame rate : 25.000 FPS Color space : YUV Chroma subsampling : 4:2:0 Bit depth : 8 bits Scan type : Progressive Compression mode : Lossy Bits/(Pixel*Frame : 0.185 Stream size : 598 MiB (85%) Writing library : DivX 5.0.2 (UTC 2002-05-16) Audio ID : 1 Format : MPEG Audio Format version : Version 1 Format profile : Layer 3 Format settings : Joint stereo / MS Stereo Codec ID : 55 Codec ID/Hint : MP3 Duration : 1 h 43 min Bit rate mode : Constant Bit rate : 128 kb/s Channel(s : 2 channels Sampling rate : 48.0 kHz Compression mode : Lossy Delay relative to video : 8 ms Stream size : 94.8 MiB (14%) Alignment : Aligned on interleaves Interleave, duration : 24 ms (0.60 video frame) Interleave, preload duration : 504 ms http //www.imdb.com/title/tt0250223
Noch mehr Downloads wie „Asterix.und.Obelix.-.Mission.Kleopatra.DVDRiP.2002.GERMAN.XViD-iND“
Asterix.und.Obelix.Mission.Kleopatra.2002.German.DL.DTSD.2160p.UHD.BluRay.x265-DARKSHiT Abenteuer 39 GB 🛒
Asterix.und.Obelix.Mission.Kleopatra.2002.German.DVDRip.x264.iNTERNAL-TVARCHiV Animation 1 GB 🛒

ddownload.com

Rapidgator.net