Hochgeladen am 06. Sep 2022 11:35
DER.SPRUNG.NACH.OBEN.1994.GERMAN.DL.AC3D.1080.BLURAY.X264-iND
Genre: Drama
Kategorie: Movies
Unterkategorie: 1080p
Sprache:
Größe: 10916 MB
Format: BluRay
Passwort: ohne Passwort
"Bis ins tiefste Afrika verschlägt es Assistenzcoach Jimmy Dolan auf seiner Suche nach einem neuen Basketballstar. Als Jimmy Dolan den Häuptlingssohn Saleh entdeckt, will er ihn sofort für sein Team verpflichten. Kein Problem - denkt Dolan. Doch der afrikanische Star kenn sein Volk wegen einer Stammesfehde nicht verlassen. Jetzt setzt Jimmy alles auf eine Karte. Er unterzieht sich den Stammesritualen und kämpft auf Salehs Seite."
General Unique ID : 233112304365481719881020809644678220862 (0xAF5FCBF709DEFF139F29BEB092768C3E) Complete name : DER.SPRUNG.NACH.OBEN.1994.GERMAN.DL.AC3D.1080.BLURAY.X264-iND\Der Sprung nach oben DL 1080p.mkv Format : Matroska Format version : Version 4 File size : 10.7 GiB Duration : 1 h 47 min Overall bit rate mode : Variable Overall bit rate : 14.2 Mb/s Encoded date : UTC 2016-10-27 12:47:46 Writing application : mkvmerge v9.3.1 ('Mask Machine ) 64bit Writing library : libebml v1.3.4 + libmatroska v1.4.5 Video ID : 1 Format : AVC Format/Info : Advanced Video Codec Format profile : High@L4 Format settings : CABAC / 4 Ref Frames Format settings, CABAC : Yes Format settings, Reference frames : 4 frames Codec ID : V_MPEG4/ISO/AVC Duration : 1 h 47 min Bit rate mode : Variable Bit rate : 13.2 Mb/s Maximum bit rate : 15.0 Mb/s Width : 1 920 pixels Height : 1 040 pixels Display aspect ratio : 1.85:1 Frame rate mode : Constant Frame rate : 23.976 (24000/1001) FPS Color space : YUV Chroma subsampling : 4:2:0 Bit depth : 8 bits Scan type : Progressive Bits/(Pixel*Frame : 0.277 Stream size : 9.94 GiB (93%) Writing library : x264 core 148 r2623 d5b2374 Encoding settings : cabac=1 / ref=4 / deblock=1:-1:-1 / analyse=0x3:0x133 / me=umh / subme=9 / psy=1 / psy_rd=1.00:0.15 / mixed_ref=1 / me_range=24 / chroma_me=1 / trellis=2 / 8x8dct=1 / cqm=0 / deadzone=21,11 / fast_pskip=1 / chroma_qp_offset=-3 / threads=32 / lookahead_threads=5 / sliced_threads=0 / nr=150 / decimate=1 / interlaced=0 / bluray_compat=0 / constrained_intra=0 / bframes=8 / b_pyramid=2 / b_adapt=2 / b_bias=0 / direct=3 / weightb=1 / open_gop=0 / weightp=2 / keyint=120 / keyint_min=61 / scenecut=0 / intra_refresh=0 / rc_lookahead=120 / rc=crf / mbtree=1 / crf=18.0 / qcomp=0.60 / qpmin=0 / qpmax=69 / qpstep=4 / vbv_maxrate=15000 / vbv_bufsize=31250 / crf_max=0.0 / nal_hrd=vbr / filler=0 / ip_ratio=1.40 / aq=3:1.00 Language : English Default : Yes Forced : No Color range : Limited Color primaries : BT.709 Transfer characteristics : BT.709 Matrix coefficients : BT.709 Audio #1 ID : 2 Format : AAC LC Format/Info : Advanced Audio Codec Low Complexity Codec ID : A_AAC-2 Duration : 1 h 47 min Bit rate : 125 kb/s Channel(s : 2 channels Channel layout : L R Sampling rate : 48.0 kHz Frame rate : 46.875 FPS (1024 SPF) Compression mode : Lossy Stream size : 96.4 MiB (1%) Title : English AAC 2.0 Language : English Default : Yes Forced : No Audio #2 ID : 3 Format : AC-3 Format/Info : Audio Coding 3 Commercial name : Dolby Digital Codec ID : A_AC3 Duration : 1 h 47 min Bit rate mode : Constant Bit rate : 448 kb/s Channel(s : 6 channels Channel layout : L R C LFE Ls Rs Sampling rate : 48.0 kHz Frame rate : 31.250 FPS (1536 SPF) Compression mode : Lossy Stream size : 344 MiB (3%) Title : German DD5.1 | DVD Language : German Service kind : Complete Main Default : No Forced : No Audio #3 ID : 4 Format : AC-3 Format/Info : Audio Coding 3 Commercial name : Dolby Digital Codec ID : A_AC3 Duration : 1 h 47 min Bit rate mode : Constant Bit rate : 384 kb/s Channel(s : 6 channels Channel layout : L R C LFE Ls Rs Sampling rate : 48.0 kHz Frame rate : 31.250 FPS (1536 SPF) Compression mode : Lossy Delay relative to video : 1 s 80 ms Stream size : 295 MiB (3%) Title : English DD 5.1 | DVD Language : English Service kind : Complete Main Default : No Forced : No Text ID : 5 Format : UTF-8 Codec ID : S_TEXT/UTF8 Codec ID/Info : UTF-8 Plain Text Duration : 1 h 46 min Bit rate : 56 b/s Count of elements : 1216 Stream size : 44.1 KiB (0%) Language : English Default : No Forced : No https //www.imdb.com/title/tt0109067/

ddownload.com

Rapidgator.net